Technical Support for Jaksta Media Recorder

Support | Windows | Technical | Jaksta Media Recorder | Source URL pulling wrong quality

Source URL pulling wrong quality

Asked by Zach McLean @ 14 Dec 2017 06:12 / Views: 9

I grab the Source URL from Jaksta and then use FFMPEG to send it to server for viewing via RTMP.   I appears since last week the URL i pass to FFMPEG is not quantifying the 720p stream that I want pulled.    

[hls,applehttp @ 0000002bd8dfeaa0] Opening 'http://sprtott26-i.akamaihd.net/hls/

live/250904-b/nbc-sports1213112458/VIDEO_5_664000/1513193172_set_0/OTT26_VIDEO_5

_664000_1608.ts' for reading

[hls,applehttp @ 0000002bd8dfeaa0] Opening 'http://sprtott26-i.akamaihd.net/hls/

live/250904/nbc-sports1213112458/VIDEO_6_364000/1513193172_set_0/OTT26_VIDEO_6_3

64000_1608.ts' for reading

[hls,applehttp @ 0000002bd8dfeaa0] Opening 'http://sprtott26-i.akamaihd.net/hls/

live/250904-b/nbc-sports1213112458/VIDEO_6_364000/1513193172_set_0/OTT26_VIDEO_6

_364000_1608.ts' for reading

Input #0, hls,applehttp, from 'http://sprtott26-i.akamaihd.net/hls/live/250904/n

bc-sports1213112458/master.m3u8?token=st=1513202840~exp=1513202960~acl=/hls/live

/250904/nbc-sports1213112458/*~hmac=d03d4553d320a8fdaa5056e18568a1e3f388403ad278

51efe5e01f87b6e9c44e':

  Duration: N/A, start: 13780.900467, bitrate: N/A

  Program 0

    Metadata:

      variant_bitrate : 6996179

    Stream #0:0: Video: h264 (High) ([27][0][0][0] / 0x001B), yuv420p, 1920x1080

 [SAR 1:1 DAR 16:9], Closed Captions, 29.97 fps, 29.97 tbr, 90k tbn, 59.94 tbc

    Metadata:

      variant_bitrate : 6996179

    Stream #0:1: Audio: aac (LC) ([15][0][0][0] / 0x000F), 44100 Hz, stereo, flt

p

    Metadata:

      variant_bitrate : 6996179

  Program 1

    Metadata:

      variant_bitrate : 6996179

    Stream #0:2: Video: h264 (High) ([27][0][0][0] / 0x001B), yuv420p, 1920x1080

 [SAR 1:1 DAR 16:9], Closed Captions, 29.97 fps, 29.97 tbr, 90k tbn, 59.94 tbc

    Metadata:

      variant_bitrate : 6996179

    Stream #0:3: Audio: aac (LC) ([15][0][0][0] / 0x000F), 44100 Hz, stereo, flt

p

    Metadata:

      variant_bitrate : 6996179

  Program 2

    Metadata:

      variant_bitrate : 5172258

    Stream #0:4: Video: h264 (Main) ([27][0][0][0] / 0x001B), yuv420p, 1280x720

[SAR 1:1 DAR 16:9], Closed Captions, 29.97 fps, 29.97 tbr, 90k tbn, 59.94 tbc

    Metadata:

      variant_bitrate : 5172258

    Stream #0:5: Audio: aac (LC) ([15][0][0][0] / 0x000F), 44100 Hz, stereo, flt

p

    Metadata:

      variant_bitrate : 5172258

  Program 3

    Metadata:

      variant_bitrate : 5172258

    Stream #0:6: Video: h264 (Main) ([27][0][0][0] / 0x001B), yuv420p, 1280x720

[SAR 1:1 DAR 16:9], Closed Captions, 29.97 fps, 29.97 tbr, 90k tbn, 59.94 tbc

    Metadata:

      variant_bitrate : 5172258

    Stream #0:7: Audio: aac (LC) ([15][0][0][0] / 0x000F), 44100 Hz, stereo, flt

p

    Metadata:

      variant_bitrate : 5172258

  Program 4

    Metadata:

      variant_bitrate : 2947032

    Stream #0:8: Video: h264 (Main) ([27][0][0][0] / 0x001B), yuv420p, 1024x576

[SAR 1:1 DAR 16:9], Closed Captions, 29.97 fps, 29.97 tbr, 90k tbn, 59.94 tbc

    Metadata:

      variant_bitrate : 2947032

    Stream #0:9: Audio: aac (LC) ([15][0][0][0] / 0x000F), 44100 Hz, stereo, flt

p

    Metadata:

      variant_bitrate : 2947032

  Program 5

    Metadata:

      variant_bitrate : 2947032

    Stream #0:10: Video: h264 (Main) ([27][0][0][0] / 0x001B), yuv420p, 1024x576

 [SAR 1:1 DAR 16:9], Closed Captions, 29.97 fps, 29.97 tbr, 90k tbn, 59.94 tbc

    Metadata:

      variant_bitrate : 2947032

    Stream #0:11: Audio: aac (LC) ([15][0][0][0] / 0x000F), 44100 Hz, stereo, fl

tp

    Metadata:

      variant_bitrate : 2947032

  Program 6

    Metadata:

      variant_bitrate : 1937933

    Stream #0:12: Video: h264 (Main) ([27][0][0][0] / 0x001B), yuv420p, 768x432

[SAR 1:1 DAR 16:9], Closed Captions, 29.97 fps, 29.97 tbr, 90k tbn, 59.94 tbc

    Metadata:

      variant_bitrate : 1937933

    Stream #0:13: Audio: aac (LC) ([15][0][0][0] / 0x000F), 44100 Hz, stereo, fl

tp

    Metadata:

      variant_bitrate : 1937933

  Program 7

    Metadata:

      variant_bitrate : 1937933

    Stream #0:14: Video: h264 (Main) ([27][0][0][0] / 0x001B), yuv420p, 768x432

[SAR 1:1 DAR 16:9], Closed Captions, 29.97 fps, 29.97 tbr, 90k tbn, 59.94 tbc

    Metadata:

      variant_bitrate : 1937933

    Stream #0:15: Audio: aac (LC) ([15][0][0][0] / 0x000F), 44100 Hz, stereo, fl

tp

    Metadata:

      variant_bitrate : 1937933

  Program 8

    Metadata:

      variant_bitrate : 1296764

    Stream #0:16: Video: h264 (Main) ([27][0][0][0] / 0x001B), yuv420p, 640x360

[SAR 1:1 DAR 16:9], Closed Captions, 29.97 fps, 29.97 tbr, 90k tbn, 59.94 tbc

    Metadata:

      variant_bitrate : 1296764

    Stream #0:17: Audio: aac (LC) ([15][0][0][0] / 0x000F), 44100 Hz, stereo, fl

tp

    Metadata:

      variant_bitrate : 1296764

  Program 9

    Metadata:

      variant_bitrate : 1296764

    Stream #0:18: Video: h264 (Main) ([27][0][0][0] / 0x001B), yuv420p, 640x360

[SAR 1:1 DAR 16:9], Closed Captions, 29.97 fps, 29.97 tbr, 90k tbn, 59.94 tbc

    Metadata:

      variant_bitrate : 1296764

    Stream #0:19: Audio: aac (LC) ([15][0][0][0] / 0x000F), 44100 Hz, stereo, fl

tp

    Metadata:

      variant_bitrate : 1296764

  Program 10

    Metadata:

      variant_bitrate : 906120

    Stream #0:20: Video: h264 (Main) ([27][0][0][0] / 0x001B), yuv420p, 512x288

[SAR 1:1 DAR 16:9], Closed Captions, 29.97 fps, 29.97 tbr, 90k tbn, 59.94 tbc

    Metadata:

      variant_bitrate : 906120

    Stream #0:21: Audio: aac (LC) ([15][0][0][0] / 0x000F), 44100 Hz, stereo, fl

tp

    Metadata:

      variant_bitrate : 906120

  Program 11

    Metadata:

      variant_bitrate : 906120

    Stream #0:22: Video: h264 (Main) ([27][0][0][0] / 0x001B), yuv420p, 512x288

[SAR 1:1 DAR 16:9], Closed Captions, 29.97 fps, 29.97 tbr, 90k tbn, 59.94 tbc

    Metadata:

      variant_bitrate : 906120

    Stream #0:23: Audio: aac (LC) ([15][0][0][0] / 0x000F), 44100 Hz, stereo, fl

tp

    Metadata:

      variant_bitrate : 906120

  Program 12

    Metadata:

      variant_bitrate : 508358

    Stream #0:24: Video: h264 (Main) ([27][0][0][0] / 0x001B), yuv420p, 384x216

[SAR 1:1 DAR 16:9], Closed Captions, 29.97 fps, 29.97 tbr, 90k tbn, 59.94 tbc

    Metadata:

      variant_bitrate : 508358

    Stream #0:25: Audio: aac (LC) ([15][0][0][0] / 0x000F), 44100 Hz, stereo, fl

tp

    Metadata:

      variant_bitrate : 508358

  Program 13

    Metadata:

      variant_bitrate : 508358

    Stream #0:26: Video: h264 (Main) ([27][0][0][0] / 0x001B), yuv420p, 384x216

[SAR 1:1 DAR 16:9], Closed Captions, 29.97 fps, 29.97 tbr, 90k tbn, 59.94 tbc

    Metadata:

      variant_bitrate : 508358

    Stream #0:27: Audio: aac (LC) ([15][0][0][0] / 0x000F), 44100 Hz, stereo, fl

tp

    Metadata:

      variant_bitrate : 508358

Output #0, flv, to 'rtmp://195.181.173.246:8001/live/multi':

  Metadata:

    encoder : Lavf58.3.100

    Stream #0:0: Video: h264 (High) ([7][0][0][0] / 0x0007), yuv420p, 1920x1080

[SAR 1:1 DAR 16:9], q=2-31, 29.97 fps, 29.97 tbr, 1k tbn, 90k tbc

    Metadata:

      variant_bitrate : 6996179

    Stream #0:1: Audio: aac (LC) ([10][0][0][0] / 0x000A), 44100 Hz, stereo, flt

p

    Metadata:

      variant_bitrate : 6996179

Stream mapping:

  Stream #0:0 -> #0:0 (copy)

  Stream #0:1 -> #0:1 (copy)

Press [q] to stop, [?] for help

frame= 2 fps=0.0 q=-1.0 size= 186kB time=00:00:00.18 bitrate=8351.4kbits/

frame= 21 fps= 14 q=-1.0 size= 476kB time=00:00:00.83 bitrate=4691.3kbits/

frame= 33 fps= 15 q=-1.0 size= 749kB time=00:00:01.20 bitrate=5094.7kbits/

frame= 45 fps= 16 q=-1.0 size= 1021kB time=00:00:01.66 bitrate=5014.9kbits/

frame= 57 fps= 17 q=-1.0 size= 1294kB time=00:00:01.94 bitrate=5442.9kbits/

frame= 62 fps= 16 q=-1.0 size= 1547kB time=00:00:02.17 bitrate=5817.3kbits/

frame= 79 fps= 17 q=-1.0 size= 1793kB time=00:00:02.73 bitrate=5368.0kbits/

frame= 91 fps= 18 q=-1.0 size= 2065kB time=00:00:03.10 bitrate=5443.8kbits/

frame= 102 fps= 18 q=-1.0 size= 2315kB time=00:00:03.47 bitrate=5450.8kbits/

frame= 111 fps= 18 q=-1.0 size= 2519kB time=00:00:03.75 bitrate=5491.5kbits/

frame= 122 fps= 17 q=-1.0 size= 2909kB time=00:00:04.17 bitrate=5706.9kbits/

frame= 139 fps= 18 q=-1.0 size= 3155kB time=00:00:04.73 bitrate=5460.5kbits/

frame= 150 fps= 18 q=-1.0 size= 3404kB time=00:00:05.10 bitrate=5463.0kbits/

frame= 161 fps= 19 q=-1.0 size= 3654kB time=00:00:05.47 bitrate=5466.4kbits/

frame= 170 fps= 19 q=-1.0 size= 3858kB time=00:00:05.75 bitrate=5492.2kbits/

[hls,applehttp @ 0000002bd8dfeaa0] Opening 'http://sprtott26-i.akamaihd.net/hls/

live/250904/nbc-sports1213112458/OTT26_VIDEO_0_5564000.m3u8' for reading

[hls,applehttp @ 0000002bd8dfeaa0] Opening 'http://sprtott26-i.akamaihd.net/hls/

live/250904/nbc-sports1213112458/VIDEO_0_5564000/1513193172_set_0/OTT26_VIDEO_0_

5564000_1609.ts' for reading

frame= 179 fps= 18 q=-1.0 size= 4063kB time=00:00:05.98 bitrate=5558.9kbits/

[hls,applehttp @ 0000002bd8dfeaa0] No longer receiving playlist 1

[hls,applehttp @ 0000002bd8dfeaa0] No longer receiving playlist 2

[hls,applehttp @ 0000002bd8dfeaa0] No longer receiving playlist 3

[hls,applehttp @ 0000002bd8dfeaa0] No longer receiving playlist 4

[hls,applehttp @ 0000002bd8dfeaa0] No longer receiving playlist 5

[hls,applehttp @ 0000002bd8dfeaa0] No longer receiving playlist 6

[hls,applehttp @ 0000002bd8dfeaa0] No longer receiving playlist 7

[hls,applehttp @ 0000002bd8dfeaa0] No longer receiving playlist 8

[hls,applehttp @ 0000002bd8dfeaa0] No longer receiving playlist 9

[hls,applehttp @ 0000002bd8dfeaa0] No longer receiving playlist 10

[hls,applehttp @ 0000002bd8dfeaa0] No longer receiving playlist 11

[hls,applehttp @ 0000002bd8dfeaa0] No longer receiving playlist 12

[hls,applehttp @ 0000002bd8dfeaa0] No longer receiving playlist 13

frame= 191 fps= 19 q=-1.0 size= 4335kB time=00:00:06.45 bitrate=5504.9kbits/

frame= 203 fps= 19 q=-1.0 size= 4607kB time=00:00:06.82 bitrate=5531.7kbits/

frame= 214 fps= 19 q=-1.0 size= 4857kB time=00:00:07.19 bitrate=5530.8kbits/

frame= 226 fps= 19 q=-1.0 size= 5130kB time=00:00:07.65 bitrate=5486.5kbits/

frame= 238 fps= 19 q=-1.0 size= 5402kB time=00:00:08.00 bitrate=5526.6kbits/

frame= 242 fps= 18 q=-1.0 size= 5633kB time=00:00:08.19 bitrate=5632.3kbits/

frame= 261 fps= 19 q=-1.0 size= 5924kB time=00:00:08.84 bitrate=5487.8kbits/

frame= 273 fps= 19 q=-1.0 size= 6196kB time=00:00:09.21 bitrate=5508.9kbits/

frame= 285 fps= 19 q=-1.0 size= 6468kB time=00:00:09.67 bitrate=5474.7kbits/

frame= 295 fps= 19 q=-1.0 size= 6696kB time=00:00:09.88 bitrate=5547.2kbits/

frame= 302 fps= 19 q=-1.0 size= 6995kB time=00:00:10.19 bitrate=5623.3kbits/

frame= 319 fps= 19 q=-1.0 size= 7240kB time=00:00:10.74 bitrate=5518.9kbits/

frame= 331 fps= 19 q=-1.0 size= 7513kB time=00:00:11.11 bitrate=5535.4kbits/

frame= 343 fps= 19 q=-1.0 size= 7785kB time=00:00:11.49 bitrate=5550.5kbits/

frame= 355 fps= 19 q=-1.0 size= 8057kB time=00:00:11.86 bitrate=5564.5kbits/

[hls,applehttp @ 0000002bd8dfeaa0] Opening 'http://sprtott26-i.akamaihd.net/hls/

live/250904/nbc-sports1213112458/OTT26_VIDEO_0_5564000.m3u8' for reading

[hls,applehttp @ 0000002bd8dfeaa0] Opening 'http://sprtott26-i.akamaihd.net/hls/

live/250904/nbc-sports1213112458/VIDEO_0_5564000/1513193172_set_0/OTT26_VIDEO_0_

5564000_1610.ts' for reading

frame= 362 fps= 19 q=-1.0 size= 8357kB time=00:00:12.18 bitrate=5617.2kbits/

frame= 379 fps= 19 q=-1.0 size= 8602kB time=00:00:12.76 bitrate=5519.5kbits/

frame= 391 fps= 19 q=-1.0 size= 8875kB time=00:00:13.11 bitrate=5543.3kbits/

frame= 399 fps= 19 q=-1.0 size= 9056kB time=00:00:13.41 bitrate=5529.3kbits/

frame= 411 fps= 19 q=-1.0 size= 9328kB time=00:00:13.76 bitrate=5551.2kbits/

frame= 421 fps= 19 q=-1.0 size= 9718kB time=00:00:14.18 bitrate=5612.7kbits/

frame= 431 fps= 19 q=-1.0 size= 9782kB time=00:00:14.48 bitrate=5532.4kbits/

frame= 443 fps= 19 q=-1.0 size= 10055kB time=00:00:14.85 bitrate=5544.0kbits/

frame= 455 fps= 19 q=-1.0 size= 10327kB time=00:00:15.22 bitrate=5555.6kbits/

frame= 467 fps= 19 q=-1.0 size= 10600kB time=00:00:15.69 bitrate=5533.1kbits/

frame= 479 fps= 19 q=-1.0 size= 10872kB time=00:00:15.99 bitrate=5568.1kbits/

frame= 491 fps= 19 q=-1.0 size= 11144kB time=00:00:16.45 bitrate=5546.7kbits/

frame= 503 fps= 19 q=-1.0 size= 11417kB time=00:00:16.83 bitrate=5556.7kbits/

frame= 514 fps= 19 q=-1.0 size= 11666kB time=00:00:17.20 bitrate=5555.7kbits/

frame= 526 fps= 19 q=-1.0 size= 11939kB time=00:00:17.66 bitrate=5535.8kbits/

frame= 538 fps= 19 q=-1.0 size= 12211kB time=00:00:18.01 bitrate=5552.7kbits/

[hls,applehttp @ 0000002bd8dfeaa0] Opening 'http://sprtott26-i.akamaihd.net/hls/

live/250904/nbc-sports1213112458/OTT26_VIDEO_0_5564000.m3u8' for reading

[hls,applehttp @ 0000002bd8dfeaa0] Opening 'http://sprtott26-i.akamaihd.net/hls/

live/250904/nbc-sports1213112458/VIDEO_0_5564000/1513193172_set_0/OTT26_VIDEO_0_

5564000_1611.ts' for reading

frame= 542 fps= 19 q=-1.0 size= 12442kB time=00:00:18.20 bitrate=5600.0kbits/

frame= 559 fps= 19 q=-1.0 size= 12688kB time=00:00:18.68 bitrate=5561.7kbits/

frame= 570 fps= 19 q=-1.0 size= 12937kB time=00:00:19.12 bitrate=5540.4kbits/

frame= 579 fps= 19 q=-1.0 size= 13142kB time=00:00:19.43 bitrate=5540.4kbits/

frame= 591 fps= 19 q=-1.0 size= 13414kB time=00:00:19.78 bitrate=5555.5kbits/

frame= 601 fps= 19 q=-1.0 size= 13803kB time=00:00:20.19 bitrate=5598.7kbits/

frame= 611 fps= 19 q=-1.0 size= 13868kB time=00:00:20.47 bitrate=5548.3kbits/

frame= 621 fps= 19 q=-1.0 size= 14095kB time=00:00:20.84 bitrate=5538.4kbits/

frame= 631 fps= 19 q=-1.0 size= 14322kB time=00:00:21.12 bitrate=5553.6kbits/

frame= 642 fps= 19 q=-1.0 size= 14571kB time=00:00:21.49 bitrate=5552.6kbits/

frame= 651 fps= 19 q=-1.0 size= 14776kB time=00:00:21.80 bitrate=5552.4kbits/

frame= 662 fps= 19 q=-1.0 size= 15166kB time=00:00:22.19 bitrate=5597.8kbits/

frame= 679 fps= 19 q=-1.0 size= 15411kB time=00:00:22.77 bitrate=5543.3kbits/

frame= 690 fps= 19 q=-1.0 size= 15661kB time=00:00:23.12 bitrate=5548.3kbits/

frame= 699 fps= 19 q=-1.0 size= 15865kB time=00:00:23.42 bitrate=5548.3kbits/

frame= 710 fps= 19 q=-1.0 size= 16115kB time=00:00:23.77 bitrate=5553.1kbits/

[hls,applehttp @ 0000002bd8dfeaa0] Opening 'http://sprtott26-i.akamaihd.net/hls/

live/250904/nbc-sports1213112458/OTT26_VIDEO_0_5564000.m3u8' for reading

[hls,applehttp @ 0000002bd8dfeaa0] Opening 'http://sprtott26-i.akamaihd.net/hls/

live/250904/nbc-sports1213112458/VIDEO_0_5564000/1513193172_set_0/OTT26_VIDEO_0_

5564000_1612.ts' for reading

frame= 719 fps= 19 q=-1.0 size= 16319kB time=00:00:24.02 bitrate=5563.6kbits/

frame= 731 fps= 19 q=-1.0 size= 16592kB time=00:00:24.47 bitrate=5554.5kbits/

frame= 742 fps= 19 q=-1.0 size= 16841kB time=00:00:24.84 bitrate=5553.9kbits/

frame= 751 fps= 19 q=-1.0 size= 17046kB time=00:00:25.12 bitrate=5558.8kbits/

frame= 763 fps= 19 q=-1.0 size= 17318kB time=00:00:25.49 bitrate=5565.2kbits/

frame= 775 fps= 19 q=-1.0 size= 17590kB time=00:00:25.95 bitrate=5551.7kbits/

frame= 782 fps= 19 q=-1.0 size= 17889kB time=00:00:26.21 bitrate=5591.1kbits/

frame= 801 fps= 19 q=-1.0 size= 18180kB time=00:00:26.86 bitrate=5544.4kbits/

frame= 813 fps= 19 q=-1.0 size= 18453kB time=00:00:27.23 bitrate=5550.8kbits/

frame= 823 fps= 19 q=-1.0 size= 18680kB time=00:00:27.53 bitrate=5557.4kbits/

frame= 835 fps= 19 q=-1.0 size= 18952kB time=00:00:27.90 bitrate=5563.3kbits/

frame= 842 fps= 19 q=-1.0 size= 19251kB time=00:00:28.20 bitrate=5590.9kbits/

[flv @ 0000002bdf2607e0] Failed to update header with correct duration.

[flv @ 0000002bdf2607e0] Failed to update header with correct filesize.

frame= 855 fps= 19 q=-1.0 Lsize= 19407kB time=00:00:28.58 bitrate=5562.8kbits

/s speed=0.643x

video:19154kB audio:215kB subtitle:0kB other streams:0kB global headers:0kB muxi

ng overhead: 0.198315%

Exiting normally, received signal 2.

 

c:\ffmpeg2\bin>


From Zach McLean @ 14 Dec 2017 06:12

According to the ffmpeg output you have listed there is a 720p stream - stream #0:6

Stream #0:6: Video: h264 (Main) ([27][0][0][0] / 0x001B), yuv420p, 1280x720


From CRS @ 14 Dec 2017 12:12