Technical Support for Jaksta Media Recorder

Support | Windows | Technical | Jaksta Media Recorder | Wrong length capturing from amateur.tv with AUTO

Wrong length capturing from amateur.tv with AUTO

Asked by Bartolo Cagafuego @ 19 Apr 2020 19:04 / Views: 3

This info might be old. Please read more info about the best way to download from le now.

Hi,

Every time I try to use AUTO with amateur.tv I get a wrong length in the files, so I can't play successfully these files.

For example, I've been capturing around 1 minute from https://www.amateur.tv/MaReL69

According to any player or MediaInfo, its length is bigger than 1 minute and the audio's and video's duration is different:

  

General
Complete name                            : E:\ama\Jaksta\Jaksta Media Recorder\WEBCAM de MaReL69 - Chatea con MaReL69 100% Hot Amateur-tv.mp4
Format                                   : MPEG-4
Format profile                           : Base Media
Codec ID                                 : isom (isom/iso2/avc1/mp41)
File size                                : 10.6 MiB
Duration                                 : 21 min 24 s
Overall bit rate                         : 69.5 kb/s
Writing application                      : Lavf57.48.100

Video
ID                                       : 1
Format                                   : AVC
Format/Info                              : Advanced Video Codec
Format profile                           : Baseline@L3.1
Format settings                          : 1 Ref Frames
Format settings, CABAC                   : No
Format settings, Reference frames        : 1 frame
Codec ID                                 : avc1
Codec ID/Info                            : Advanced Video Coding
Duration                                 : 10 min 30 s
Bit rate                                 : 73.7 kb/s
Width                                    : 800 pixels
Height                                   : 600 pixels
Display aspect ratio                     : 4:3
Frame rate mode                          : Variable
Frame rate                               : 1.954 FPS
Minimum frame rate                       : 0.002 FPS
Maximum frame rate                       : 90 000.000 FPS
Original frame rate                      : 30.000 FPS
Standard                                 : NTSC
Color space                              : YUV
Chroma subsampling                       : 4:2:0
Bit depth                                : 8 bits
Scan type                                : Progressive
Bits/(Pixel*Frame)                       : 0.079
Stream size                              : 5.54 MiB (52%)
Color range                              : Limited
Codec configuration box                  : avcC

Audio
ID                                       : 2
Format                                   : AAC LC
Format/Info                              : Advanced Audio Codec Low Complexity
Codec ID                                 : mp4a-40-2
Duration                                 : 21 min 24 s
Bit rate mode                            : Constant
Bit rate                                 : 33.2 kb/s
Channel(s)                               : 1 channel
Channel layout                           : C
Sampling rate                            : 16.0 kHz
Frame rate                               : 15.625 FPS (1024 SPF)
Compression mode                         : Lossy
Stream size                              : 5.08 MiB (48%)
Default                                  : Yes
Alternate group                          : 1

  

I've attached the debug result from this test and its video.

However, if I use the On Demand saving of media (Drag & Drop or Copy & Paste the webpage URL into the URL Download field) I get a right file.

Please, could you help me?

Thanks.

Regards.


From @

This info might be old. Please read more info about the best way to download from le now.